» » Nickelback - All The Right Reasons - 2017 FLAC 24-96

Nickelback - All The Right Reasons - 2017 FLAC 24-96

http://i95.fastpic.ru/big/2017/0719/0a/cd11fb99c9822d1c4630af00e29a270a.jpg
2017 | Rock
FLAC | Lossless 24-96 | 338 Mb

foobar2000 1.3.15 / Dynamic Range Meter 1.1.1
log date: 2017
-
Analyzed: Nickelback / All The Right Reasons
-
DR Peak RMS Duration Track
-
DR11 -6.00 dB -18.98 dB 4:16 01-Follow You Home
DR11 -5.83 dB -19.04 dB 3:38 02-Fight For All The Wrong Reasons
DR11 -6.12 dB -19.92 dB 4:16 03-Photograph
DR11 -6.51 dB -19.20 dB 3:00 04-Animals
DR11 -6.97 dB -20.52 dB 3:35 05-Savin' Me
DR12 -6.25 dB -21.16 dB 3:54 06-Far Away
DR11 -6.75 dB -19.84 dB 3:30 07-Next Contestant
DR11 -6.67 dB -19.31 dB 2:55 08-Side Of A Bullet
DR11 -6.43 dB -20.52 dB 3:32 09-If Everyone Cared
DR11 -6.76 dB -19.13 dB 3:55 10-Someone That You're With
DR11 -7.58 dB -20.52 dB 4:10 11-Rockstar
-
Number of tracks: 11
Official DR value: DR11
Samplerate: 96000 Hz
Channels: 2
Bits per sample: 24
Bitrate: 1126 kbps
Codec: FLAC
Nickelback - Follow You Home (4:16)
Nickelback - Fight For All The Wrong Reasons (3:37)
Nickelback - Photograph (4:16)
Nickelback - Animals (3:00)
Nickelback - Savin' Me (3:35)
Nickelback - Far Away (3:54)
Nickelback - Next Contestant (3:30)
Nickelback - Side Of A Bullet (2:55)
Nickelback - If Everyone Cared (3:32)
Nickelback - Someone That You're With (3:55)
Nickelback - Rockstar (4:10)
Download link :
(Buy Long-term Premium Accounts To Support Me & Max Speed)
Links are Interchangeable - Single Extraction - Premium is support resumable
Related Articles:

Comments (0)

Currently there is no comment for Nickelback - All The Right Reasons - 2017 FLAC 24-96
be the first to add comment! Please register or Login